커뮤니티
토렌트
펀펀한갤
포인트

포인트 랭킹

  1. 1윤조Love2,873,605점
  2. 2cha5s2,009,278점
  3. 3BugsBunny1,902,449점
  4. 4원대로1,686,104점
  5. 5드로운다963,593점
  6. 6zuvuvwu683,450점
  7. 7하니사랑674,356점
  8. 8옹기쟁이663,016점
  9. 9수고했어오늘도636,391점
[한글] 닌자의 나라 Mumon The Land of Stealth 2017 JAPANESE 1080p BRRip x264 AAC - Hon3y > 최신영화 1 페이지  
총 게시물 10,471건, 최근 9 건 안내 글쓰기
이전글  다음글  목록 글쓰기
[액션]

[한글] 닌자의 나라 Mumon The Land of Stealth 2017 JAPANESE 1080p BRRip x264 AAC - Hon3y

글쓴이 : 익명 날짜 : 2018-02-14 조회 : 5101
AD: Mumon_The_Land_of_Stealth_2017_JAPANESE_1080p_BRRip_x264_AAC_-_Hon3y 직접다운로드
Mumon_The_Land_of_Stealth_2017_JAPANESE_1080p_BRRip_x264_AAC_-_Hon3y.torrent [2.47 GB] (8.8K)
Mumon.The.Land.of.Stealth.2017.by.리아_은류_졍_180205_최종수정_.srt (97.3K)
f739f02995469261aa5a9bca06374e41_1518169668_2664.jpg

Mumon The Land of Stealth 2017 JAPANESE 1080p BRRip x264 AAC - Hon3y 


Source:Wiki 
Format : Matroska 
Format version : Version 4 / Version 2 
File size : 2.47 GiB 
Duration : 2 h 4 min 
Overall bit rate : 2 831 kb/s 
Movie name : Mumon.The.Land.of.Stealth.2017 - Hon3y 


Video 
ID : 1 
Format : AVC 
Format/Info : Advanced Video Codec 
Format profile :
Format settings, CABAC : Yes 
Format settings, RefFrames : 5 frames 
Codec ID : V_MPEG4/ISO/AVC 
Duration : 2 h 4 min 
Bit rate : 2 500 kb/s 
Width : 1 920 pixels 
Height : 800 pixels 
Display aspect ratio : 2.40:1 
Frame rate mode : Constant 
Frame rate : 23.976 (24000/1001) FPS 
Language : English 
Default : Yes 
Forced : No 
Color range : Limited 
Color primaries : BT.709 
Transfer characteristics : BT.709 
Matrix coefficients : BT.709 

Audio 
ID : 2 
Format : AAC 
Format/Info : Advanced Audio Codec 
Format profile : LC 
Codec ID : A_AAC 
Duration : 2 h 4 min 
Bit rate : 320 kb/s 
Channel(s) : 6 channels 
Channel positions : Front: L C R, Side: L R, LFE 
Sampling rate : 48.0 kHz 
Frame rate : 46.875 FPS (1024 SPF) 
Compression mode : Lossy 
Delay relative to video : 9 ms 
Stream size : 285 MiB (11%) 
Language : Japanese 
Default : Yes 
Forced : No 

Text 
ID : 3 
Format : ASS 
Codec ID : S_TEXT/ASS 
Codec ID/Info : Advanced Sub Station Alpha 
Duration : 2 h 4 min 
Bit rate : 74 b/s 
Count of elements : 1329 
Compression mode : Lossless 
Stream size : 68.2 KiB (0%) 
Language : Chinese 
Default : Yes 
Forced : No 


닌자의 나라 이가, 시모야마 가문의 적자 시모야마 헤이베(스즈키 료헤이)는 이가를 공격하는 오다 노부나가의 차남 오다 노부가츠에게 화평을 신청하러 갔다가, 닌자의 삶에 염증을 느끼고 노부가츠에게 귀의해 버린다. 그후 이가를 배신하여, 이가를 공격하자는 헤이베, 노부가치는 그의 권고를 받아들여 이가에 오다의 성을 짓게 된다.
하지만 성이 다 지어지자, 오다를 배신하고 성을 불태우는 이가의 닌자들. 그 일은 노부가츠의 심기를 건드리게 되고, 오다군은 이가를 공격하기로 한다. 결전의 그날, 막상 전투는 다가오지만 이가의 닌자들은 돈이 되지 않는 전쟁을 피해 달아가기 시작하고, 이가에는 절반의 닌자만이 남아 결전을 맞이하게 되는데…


      

자막 출처: 리아, 은류, 졍


추천버튼만 누르면 3포인트 획득!!

Mumon_The_Land_of_Stealth_2017_JAPANESE_1080p_BRRip_x264_AAC_-_Hon3y.torrent
설명●●● 토렌트리 ●●●
날짜2018-02-13
파일1: For more Exclusive & Quality Stuff Visit www.hon3yhd.to.txt (163byte)
2: Mumon The Land of Stealth 2017 JAPANESE 1080p BRRip x264 AAC - Hon3y.mkv (2,526.5M)
3: Torrent Seed By www.cyber-planet.in.txt (94byte)
총 파일 사이즈 : 2,526.5M

힐사이드3 2018-02-14 (수) 03:05
감사합니다.
댓글주소
럭키포인트 2018-02-14 (수) 03:05
축하드립니다. ;)
힐사이드3님은 럭키포인트에 당첨되어 6 포인트 지급되었습니다.
민경나경 2018-02-14 (수) 10:46
감사합니다~!!
댓글주소
킹제임스284 2018-02-14 (수) 21:09
고맙습니다
댓글주소
hi
이전글  다음글  목록 글쓰기

총 게시물 10,471건, 최근 9 건 안내
번호 분류 제목 글쓴이 날짜 추천 크기
공지  최신영화 업로드 규정 (2017 ~ 2018) 익명 07-29 -
10471 드라마  [한글] 쓰리 빌보드 Three.Billboards.Outside.Ebbing.Missouri.2017.1080p.BluRay.AVC.DTS-HD.MA.5.1-FGT/REMUX 익명 02-19 1 43.2G
10470 한국  [한글] 택시운전사 A.Taxi.Driver.2017.1080p.BluRay.x264-REGRET 3 익명 02-19 6 9.9G
10469 한국  청년경찰 Midnight.Runners.2017.720/1080p.BluRay.x264-REGRET+720/1080p.BluRay.H264.AAC-VXT 2 익명 02-19 7 4.4G
10468 한국  리얼 Real.2017.720/1080p.BluRay.x264-REGRET+720/1080p.BluRay.H264.AAC-VXT 3 익명 02-19 5 5.5G
10467 한국  해빙 Bluebeard.2017.KOREAN.720/1080p.BluRay.H264.AAC-VXT 3 익명 02-19 6 1.4G
10466 액션  [한글] 스페셜 시큐리티 : 라스트 미션 Security.2017.1080p.BluRay.x264-PSYCHD 11 익명 02-19 17 6.6G
10465 전쟁  [한글] 풍운대전 God.Of.War.2017.CHINESE.1080p.BluRay.H264.AAC-VXT 3 익명 02-19 9 2.5G
10464 스릴러  [한글] 블랙 버터플라이 Black.Butterfly.2017.1080p.BluRay.x264-PSYCHD 5 익명 02-19 9 6.6G
10463 드라마  [한글] 레이디 맥베스 Lady.Macbeth.2016.720p.BluRay.H264.AAC-RARBG 1 익명 02-19 6 1.1G
10462 애니  [한글] 배트맨: 가스등 아래의 고담 Batman.Gotham.by.Gaslight.2018.1080p.BluRay.AVC.DTS-HD.MA.5.1-FGT/REMUX+720p BRRip 550 MB - iExTV 6    익명 02-18 11 21.6G
10461 애니  [한글] 배트맨: 가스등 아래의 고담 Batman.Gotham.by.Gaslight.2018.1080p.BluRay.x264.DTS-HD.MA.5.1-MT+720/1080p.BluRay.x264.DTS-MT+720/1080p.BluRay.x… 7    익명 02-18 12 4.4G
10460 드라마  [자체 한글] 나의 서른에게.29+1.2017-720p-avc1.HDTV 10    익명 02-18 16 1.6G
10459 애니  [한글] 더 크리스마스 The Star 2017 720+1080p BluRay AC3 5.1 x264 ESub 8    익명 02-18 12 645M
10458 액션  [한글] 스페셜 시큐리티 : 라스트 미션 Security.2017.720p.BluRay.H264.AAC-RARBG 6    익명 02-18 11 1.1G
10457 스릴러  [한글] 64 파트 2 64.Part.II.2016.1080p.BluRay.x264.DTS-WiKi 8    익명 02-18 10 9.8G
10456 스릴러  [한글] 64 파트 1 64.Part.I.2016.1080p.BluRay.x264.DTS-WiKi 7    익명 02-18 9 10.0G
10455 액션  [한글] 치명도수: RESET 致命倒數 Reset.2017.720/1080p.BluRay.x264.DTS-WiKi 7    익명 02-18 8 4.5G
10454 드라마  특별시민 The Mayor.2017.H264.1080p-HDTV.KBS 5    익명 02-18 9 1.2G
10453 애니  [한글] 코코 Coco.2017.1080p/720p.BluRay.H264.AAC-RARBG 13    익명 02-18 15 2.0G
10452 멜로  [한글] 리빙보이 인 뉴욕 The.Only.Living.Boy.in.New.York.2017.720p.WEB-DL.XviD.AC3/1080p.WEB-DL.DD5.1.H264-FGT+1080p.AMZN.WEBRip.DDP5.1.x264-SiGMA+720p.… 7 익명 02-18 12 2.6G
10451 액션  [한글] 토르: 라그나로크 Thor.Ragnarok.2017.1080p.BRRip.X264.AC3-EVO+1080p BRRip x264 AAC - Hon3y+1080p.BRRip.6CH.2.6GB.MkvCage 11    익명 02-18 15 4.1G
10450 액션  [한글] 협도연맹 The.Adventurers.2017.720p+1080p.BluRay.x264-[YTS.AM] 11 익명 02-18 21 796M
10449 액션  [한글] 토르: 라그나로크 Thor.Ragnarok.2017.720p.BRRip.X264.AC3-EVO+720p BRRip x264 AAC - Hon3y+720p.BRRip.1.2GB.MkvCage+720p BRRip 950 MB - iExTV 5    익명 02-17 13 2.9G
10448 액션  [한글] 토르, 라그나로크 Thor.Ragnarok.2017.720p/1080p.BluRay.H264.AAC-RARBG 7 익명 02-17 7 1.6G
10447 한국  [한글, 영문 sup] 악녀 Ak-Nyeo.Aka.The.Villainess.2017.1080p.BluRay.x264.2Audio-OoO 11    익명 02-17 8 4.4G
 1  2  3  4  5  6  7  8  9  10  다음  맨끝

Copyright ⓒ torrentleex.com. All rights reserved. --DMCA